Black Rock Shooter | Russell Howard's Stand Up Central | The Graham Norton Show 8

The Secret Life Of Pets 2016 Esub 720p BluRay 5 1 Dual Audio English Hindi GOPISAHI torrent download

seeders: 797
leechers: 290
updated:
Added ago by PENDUDESI ***** in Movies
Torrent Downloaded 10 times.
Info Hash: 03088D975799D7163C8DDBE208C36AB7BACE8331


Torrent Files

The Secret Life Of Pets 2016 Esub 720p BluRay 5 1 Dual Audio English Hindi GOPISAHI (Size: 362.6 MB)
  The Secret Life Of Pets 2016 Esub 720p BluRay 5 1 Dual Audio English Hindi GOPISAHI 362.6 MB

Torrent Description



http://www.gopisahi.pw/


Format : Matroska
Format version : Version 4 / Version 2
File size : 363 MiB
Duration : 1 h 26 min
Overall bit rate : 585 kb/s
Movie name : The Secret Life Of Pets 2016 GOPISAHI

Video
Format : HEVC
Codec ID : V_MPEGH/ISO/HEVC
Duration : 1 h 26 min
Bit rate : 401 kb/s
Width : 1 280 pixels
Height : 688 pixels
Display aspect ratio : 1.85:1
Frame rate mode : Constant
Frame rate : 23.976 (24000/1001) FPS
Bits/(Pixel*Frame) : 0.019
Stream size : 248 MiB (68%)
Title : GOPISAHI
Writing library : x265 2.6:[Windows][GCC 7.2.0][64 bit] 8bit+10bit+12bit

Audio #1
Format : AAC
Duration : 1 h 26 min
Bit rate : 90.8 kb/s
Channel(s) : 6 channels
Channel positions : Front: L C R, Side: L R, LFE
Sampling rate : 44.1 kHz
Frame rate : 43.066 FPS (1024 SPF)
Compression mode : Lossy
Stream size : 56.2 MiB (15%)
Title : GOPISAHI
Language : English

Audio #2
Format : AAC
Duration : 1 h 26 min
Bit rate : 92.0 kb/s
Channel(s) : 6 channels
Channel positions : Front: L C R, Side: L R, LFE
Sampling rate : 44.1 kHz
Frame rate : 43.066 FPS (1024 SPF)
Compression mode : Lossy
Stream size : 56.9 MiB (16%)
Title : GOPISAHI
Language : Hindi

Text
Language : English




Related Torrents

torrent name size age seed leech
268.5 MB 5 minutes 272 240
397.9 MB 6 minutes 467 320
327.0 MB 6 minutes 223 92
360.8 MB 6 minutes 511 422
453.3 MB 8 minutes 238 48

Sharing Widget


Download torrent
362.6 MB
seeders:1214
leechers:386
The Secret Life Of Pets 2016 Esub 720p BluRay 5 1 Dual Audio English Hindi GOPISAHI



To share this torrent use the code below and insert it into comments, status messages, forum posts or your signature.

Torrent: The Secret Life Of Pets 2016 Esub 720p BluRay 5 1 Dual Audio English Hindi GOPISAHI

Comments

Latest Searches